<?xml version="1.0" standalone="no"?>
<!DOCTYPE svg PUBLIC "-//W3C//DTD SVG 1.1//EN" "http://www.w3.org/Graphics/SVG/1.1/DTD/svg11.dtd" >
<svg xmlns="http://www.w3.org/2000/svg">
<metadata></metadata>
<defs>
<font id="CuprumItalic" horiz-adv-x="471" >
<font-face units-per-em="2048" ascent="1638" descent="-410" />
<missing-glyph horiz-adv-x="512" />
<glyph horiz-adv-x="0" />
<glyph horiz-adv-x="2048" />
<glyph unicode=" "  horiz-adv-x="512" />
<glyph unicode="&#x09;" horiz-adv-x="512" />
<glyph unicode="&#xa0;" horiz-adv-x="512" />
<glyph unicode="!" d="M137 -10l39 225h184l-38 -225h-185zM215 379l160 1055h225l-221 -1055h-164z" />
<glyph unicode="&#x22;" horiz-adv-x="675" d="M299 952l35 482h205l-138 -482h-102zM606 952l35 482h205l-137 -482h-103z" />
<glyph unicode="#" horiz-adv-x="1167" d="M113 410l24 143h215l109 328h-205l27 143h235l133 410h185l-134 -410h226l133 410h184l-133 -410h195l-27 -143h-225l-109 -328h215l-24 -143h-236l-133 -410h-184l133 410h-225l-134 -410h-184l133 410h-194zM526 553h246l109 328h-246z" />
<glyph unicode="$" horiz-adv-x="911" d="M74 20l16 93h318l96 540q-53 27 -104.5 58.5t-88.5 81t-52 119t3 173.5q29 166 122 257.5t259 107.5l31 168h123l-29 -166q78 -4 144.5 -15.5t103.5 -23.5l-17 -92h-256l-94 -533q53 -27 106.5 -57.5t92.5 -77.5t56.5 -115.5t-1.5 -168.5q-31 -172 -122 -265.5 t-273 -115.5l-29 -172h-123l29 164h-10q-92 0 -174 12t-127 28zM442 1005.5q4 -34.5 16.5 -62.5t33 -49.5t47.5 -39.5l79 449q-141 -46 -172 -218q-8 -45 -4 -79.5zM535 135q82 29 125 85.5t59 148.5q16 86 -16.5 137t-88.5 86z" />
<glyph unicode="%" horiz-adv-x="1392" d="M205 0l1050 1434h185l-1051 -1434h-184zM262 1147q29 154 116 230.5t226 76.5t200 -76.5t32 -230.5q-27 -154 -114 -230.5t-226 -76.5t-199.5 76.5t-34.5 230.5zM416 1147q-16 -100 11.5 -142t88.5 -42t105.5 42t60.5 142q18 100 -10.5 142t-89.5 42t-104.5 -42 t-61.5 -142zM807 287q29 154 116 230.5t226 76.5t199.5 -76.5t31.5 -230.5q-27 -154 -113.5 -230.5t-226.5 -76.5q-139 0 -199.5 76.5t-33.5 230.5zM961 287q-16 -100 11 -142.5t89 -42.5q61 0 105.5 42.5t60.5 142.5q18 100 -10.5 142t-90.5 42q-61 0 -104 -42t-61 -142z " />
<glyph unicode="&#x26;" horiz-adv-x="1054" d="M135 369q16 92 44 176t52 131h144l-56 -307q-14 -80 -9 -130.5t21.5 -78t40 -37.5t46.5 -10q31 0 56.5 9t53 32.5t59 65.5t75.5 108q-84 158 -134.5 269.5t-75 197.5t-26.5 153.5t10 136.5q33 186 138.5 277.5t275.5 91.5q92 0 174 -12t125 -29l-16 -92h-267 q-92 0 -158.5 -59.5t-86.5 -176.5q-8 -49 -10.5 -100t11 -115.5t47 -148.5t97.5 -199l162 277h184l-264 -451l186 -348h-205l-84 164q-35 -47 -68.5 -81t-72.5 -57.5t-89 -34.5t-120 -11q-154 0 -224.5 94t-35.5 295z" />
<glyph unicode="'" horiz-adv-x="368" d="M299 952l35 482h205l-138 -482h-102z" />
<glyph unicode="(" horiz-adv-x="503" d="M178.5 362.5q6.5 110.5 24.5 210.5t51 211t86 232t132 251t187 269l103 -61q-70 -109 -125 -213.5t-98 -214t-76 -226t-55 -248.5q-23 -131 -32 -247.5t-4 -226t23.5 -215t48.5 -212.5l-125 -61q-59 137 -91.5 268t-44 252t-5 231.5z" />
<glyph unicode=")" horiz-adv-x="503" d="M-57 -328q70 106 125 212t98 215.5t75.5 226t55.5 247.5t32 248t4 226.5t-23.5 214t-51.5 213.5l127 61q59 -139 92 -269t44 -251t5 -232t-24 -211t-51 -210.5t-86.5 -231.5t-132 -252t-187.5 -268z" />
<glyph unicode="*" horiz-adv-x="880" d="M225 1055l60 143l272 -61l53 297h164l-53 -297l297 61l6 -143l-274 -51l96 -267l-146 -71l-96 266l-190 -266l-121 71l190 267z" />
<glyph unicode="+" horiz-adv-x="880" d="M156 543l26 143h297l60 338h163l-59 -338h297l-27 -143h-297l-59 -338h-164l60 338h-297z" />
<glyph unicode="," horiz-adv-x="348" d="M39 -236l80 451h194l-141 -451h-133z" />
<glyph unicode="-" horiz-adv-x="737" d="M156 543l26 143h615l-27 -143h-614z" />
<glyph unicode="." horiz-adv-x="348" d="M80 -10l39 225h184l-39 -225h-184z" />
<glyph unicode="/" horiz-adv-x="798" d="M0 0l866 1434h185l-867 -1434h-184z" />
<glyph unicode="0" horiz-adv-x="1044" d="M194.5 359.5q-4.5 142.5 32.5 357.5q39 215 93.5 357.5t124 226t153.5 118.5t180 35t168 -35t112 -118.5t44 -226t-35 -357.5q-37 -215 -92 -357.5t-124 -226.5t-153 -118.5t-180 -34.5t-167.5 34.5t-111.5 118.5t-44.5 226.5zM379 414q0 -119 21.5 -188.5t58.5 -96.5 t80 -27t89 27t92 96.5t88 188t75 303.5q33 184 32.5 303t-22 188.5t-58 96t-79.5 26.5t-89 -26.5t-92.5 -96t-88.5 -188.5t-74 -303q-33 -184 -33 -303z" />
<glyph unicode="1" horiz-adv-x="573" d="M246 0l227 1290h-225l16 103q49 16 136 28.5t180 12.5h102l-252 -1434h-184z" />
<glyph unicode="2" horiz-adv-x="798" d="M20 0l29 164q125 127 221.5 225t169 175t123.5 137.5t86 113.5t54.5 102.5t29.5 106.5q29 162 -18 229.5t-156 67.5h-287l17 92q49 16 136 28.5t179 12.5q201 0 277.5 -99.5t36.5 -330.5q-18 -100 -64.5 -186t-128.5 -184.5t-202 -220.5t-283 -290h522l-25 -143h-717z " />
<glyph unicode="3" horiz-adv-x="849" d="M33 20l16 93h266q154 0 232 64.5t104 211.5q29 154 -26.5 220.5t-208.5 66.5h-144l25 143h123q139 0 214 62.5t97 193.5q23 123 -25.5 184.5t-156.5 61.5h-266l16 92q49 16 136 28.5t179 12.5q369 0 301 -379q-20 -117 -79.5 -191.5t-159.5 -121.5l-2 -8q59 -16 96 -52 t55.5 -85.5t19.5 -107.5t-9 -120q-18 -109 -56.5 -185.5t-98.5 -126.5t-146 -73.5t-201 -23.5q-92 0 -174 12t-127 28z" />
<glyph unicode="4" horiz-adv-x="962" d="M125 369l29 163l671 902h205l-162 -922h123l-26 -143h-123l-64 -369h-184l63 369h-532zM326 512h358l109 625h-9z" />
<glyph unicode="5" horiz-adv-x="911" d="M94 20l17 93h266q154 0 232.5 67.5t107.5 229.5t-26.5 229.5t-209.5 67.5h-235l129 727h665l-24 -134h-481l-80 -460h92q115 0 192.5 -23.5t119.5 -76t52.5 -134.5t-10.5 -196q-20 -115 -59 -197t-99.5 -134t-146.5 -75.5t-201 -23.5q-92 0 -174 12t-127 28z" />
<glyph unicode="6" horiz-adv-x="931" d="M174 410l80 450q29 162 75 274.5t109.5 183.5t143.5 103.5t176 32.5q92 0 174 -12t125 -29l-17 -92h-266q-57 0 -108.5 -25.5t-95.5 -84t-79.5 -154.5t-60.5 -238q49 16 121 28.5t133 12.5q76 0 133 -24.5t89 -77.5t39 -139.5t-13 -208.5q-41 -231 -151.5 -330.5 t-303.5 -99.5t-268.5 99t-34.5 331zM346 267.5q4 -58.5 23.5 -95.5t52.5 -53.5t76 -16.5t80.5 16.5t70.5 53.5t57.5 95.5t41.5 142.5q33 184 -17.5 255.5t-181.5 71.5h-133l-58 -327q-16 -84 -12 -142.5z" />
<glyph unicode="7" horiz-adv-x="839" d="M225 0q193 584 596 1290h-553l25 144h737l-29 -164q-199 -340 -346 -658.5t-245 -611.5h-185z" />
<glyph unicode="8" horiz-adv-x="983" d="M145 369q12 74 45 134t76 107t93.5 80t99.5 53v9q-35 14 -69 42.5t-56.5 71.5t-31.5 100.5t3 129.5q62 358 443 358q193 0 269.5 -90t45.5 -268q-12 -72 -42 -129.5t-69 -100.5t-83 -71.5t-83 -42.5v-9q41 -20 79 -53t64.5 -80t37 -107.5t-1.5 -133.5q-35 -201 -149 -295 t-329 -94q-217 0 -296.5 94t-45.5 295zM330 369q-25 -139 22 -203t156 -64t178.5 63.5t93.5 203.5q10 57 2 102t-31.5 81t-60.5 63.5t-82 50.5q-109 -47 -183.5 -114t-94.5 -183zM489 1096q-20 -109 24 -172.5t124 -94.5q90 31 155.5 94.5t86.5 172.5q20 117 -24 176 t-130 59t-150.5 -59.5t-85.5 -175.5z" />
<glyph unicode="9" horiz-adv-x="931" d="M125 20l16 93h267q57 0 109 25.5t96 84t79 154.5t60 237q-47 -16 -119 -28.5t-133 -12.5q-78 0 -134.5 25t-89 78t-40 139t15.5 209q39 229 150.5 329.5t304.5 100.5t268.5 -99.5t34.5 -330.5l-80 -451q-29 -162 -75 -274.5t-109.5 -183t-143.5 -103t-176 -32.5 q-92 0 -174 12t-127 28zM436 1024q-33 -184 16.5 -256t180.5 -72h133l59 328q14 84 10 142.5t-23 95t-52 53t-76 16.5q-84 0 -151.5 -69.5t-96.5 -237.5z" />
<glyph unicode=":" horiz-adv-x="348" d="M80 -10l39 225h184l-39 -225h-184zM221 799l41 225h184l-40 -225h-185z" />
<glyph unicode=";" horiz-adv-x="337" d="M39 -236l80 451h194l-141 -451h-133zM221 799l41 225h184l-40 -225h-185z" />
<glyph unicode="&#x3c;" horiz-adv-x="819" d="M158 430l30 174l727 410l-34 -195l-523 -295l-4 -14l420 -295l-35 -195z" />
<glyph unicode="=" horiz-adv-x="880" d="M123 358l29 154h757l-28 -154h-758zM186 717l27 153h758l-27 -153h-758z" />
<glyph unicode="&#x3e;" horiz-adv-x="819" d="M84 20l35 195l522 295l4 14l-420 295l35 195l584 -410l-31 -174z" />
<glyph unicode="?" horiz-adv-x="757" d="M203 -10l39 225h184l-39 -225h-184zM252 1321l16 92q49 16 136.5 28.5t179.5 12.5q186 0 260 -94t39 -295q-14 -86 -49 -150.5t-80 -115.5t-93.5 -95.5t-92.5 -92.5t-77.5 -103t-46.5 -129h-163q16 90 50 155.5t76 118t88 96.5t87 90t72.5 100t43.5 126q23 131 -24 193.5 t-156 62.5h-266z" />
<glyph unicode="@" horiz-adv-x="1699" d="M213 635q74 414 301 616.5t582 202.5q184 0 317 -48t213 -139t105.5 -222.5t-2.5 -296.5q-29 -158 -75 -265.5t-123 -174t-190.5 -95.5t-275.5 -29l2 62h-10q-47 -39 -107.5 -60.5t-122.5 -21.5q-61 0 -112 23.5t-85 75.5t-44.5 134t10.5 197q25 145 67 243.5t104 158 t148 85t201 25.5q31 0 67 -3t71.5 -9.5t66.5 -13.5t53 -15l-131 -748q53 0 98 18.5t83 67t68 131t52 214.5q49 287 -71.5 435t-399.5 148q-131 0 -239.5 -37t-194.5 -119.5t-147.5 -215t-94.5 -324.5q-33 -188 -17.5 -319.5t80 -212t177.5 -117.5t274 -37h267l-17 -92 q-49 -16 -135 -28.5t-178 -12.5q-385 0 -546 201.5t-89 617.5zM768 451.5q4 -58.5 22.5 -95.5t49 -53t69.5 -16t82 12t70 29l115 655h-82q-61 0 -110.5 -17.5t-88.5 -61.5t-66.5 -119.5t-48.5 -190.5q-16 -84 -12 -142.5z" />
<glyph unicode="A" horiz-adv-x="1044" d="M41 0l600 1434h266l97 -1434h-185l-28 369h-410l-156 -369h-184zM438 512h348l-45 717h-8z" />
<glyph unicode="B" horiz-adv-x="1024" d="M145 20l246 1393q82 23 163 32t173 9q215 0 295 -93q57 -66 56 -182q0 -48 -9 -104q-16 -92 -65.5 -172t-151.5 -131l-2 -8q116 -36 150 -136q20 -59 20 -130q0 -51 -10 -109q-18 -109 -57.5 -185.5t-104 -126.5t-157.5 -73.5t-224 -23.5q-92 0 -170 9t-152 31zM346 113 h143q154 0 232 64.5t104 211.5q10 56 10 101q1 84 -35 128q-54 68 -208 68h-143zM471 819h123q246 0 291 256q6 37 6 68q0 178 -209 178h-123z" />
<glyph unicode="C" horiz-adv-x="890" d="M196 360q-1 18 -1 38q0 132 32 319q39 215 93.5 357.5t125 226t156.5 118.5t186 35q92 0 174 -12t125 -29l-16 -92h-266q-61 0 -118.5 -26.5t-108 -95.5t-92.5 -185.5t-74 -296.5q-30 -174 -30 -290v-7q1 -117 29.5 -185.5t80 -95t120.5 -26.5h267l-17 -93 q-47 -16 -134 -28t-179 -12q-109 0 -185.5 34.5t-119 119t-48.5 226.5z" />
<glyph unicode="D" horiz-adv-x="1064" d="M145 20l246 1393q82 23 163 32t173 9q123 0 209 -35t132 -119t52 -226q1 -19 1 -39q0 -132 -34 -318q-37 -215 -93 -357.5t-132 -226.5t-174 -118.5t-221 -34.5q-92 0 -170 9t-152 31zM346 113h143q70 0 131.5 26.5t113.5 95t95 185.5t74 297q31 170 31 283v14 q-2 116 -29.5 185t-80 95.5t-122.5 26.5h-143z" />
<glyph unicode="E" horiz-adv-x="921" d="M143 0l252 1434h697l-25 -144h-512l-84 -471h451l-25 -143h-451l-94 -533h512l-24 -143h-697z" />
<glyph unicode="F" horiz-adv-x="880" d="M143 0l252 1434h697l-25 -144h-512l-90 -502h430l-25 -143h-430l-112 -645h-185z" />
<glyph unicode="G" horiz-adv-x="1024" d="M196 360q-1 18 -1 38q0 132 32 319q39 215 94.5 357.5t128 226t161.5 118.5t198 35q92 0 174 -12t125 -29l-16 -92h-267q-70 0 -131 -26.5t-113.5 -95.5t-94.5 -185.5t-74 -296.5q-29 -169 -29 -283v-14q2 -117 34 -185.5t92 -95t144 -26.5h82l119 665h184l-135 -758 q-47 -16 -134 -28t-179 -12q-123 0 -209 34.5t-133 118.5t-52 227z" />
<glyph unicode="H" horiz-adv-x="1085" d="M143 0l252 1434h185l-113 -635h430l113 635h184l-252 -1434h-184l114 655h-430l-114 -655h-185z" />
<glyph unicode="I" d="M143 0l252 1434h185l-252 -1434h-185z" />
<glyph unicode="J" horiz-adv-x="716" d="M2 20l16 93h185q53 0 98 17t82 60t64.5 117t48.5 185l166 942h184l-166 -942q-27 -145 -68 -243.5t-101 -158t-142 -85t-189 -25.5q-47 0 -94 12t-84 28z" />
<glyph unicode="K" horiz-adv-x="1003" d="M143 0l252 1434h185l-123 -697l522 697h215l-545 -707l334 -727h-215l-315 717l-125 -717h-185z" />
<glyph unicode="L" horiz-adv-x="860" d="M143 0l252 1434h185l-228 -1291h512l-24 -143h-697z" />
<glyph unicode="M" horiz-adv-x="1515" d="M113 0l333 1434h226l159 -983h9l508 983h225l-170 -1434h-184l124 1065h-10l-452 -881h-185l-141 881h-10l-248 -1065h-184z" />
<glyph unicode="N" horiz-adv-x="1105" d="M143 0l252 1434h205l242 -1014h10l178 1014h184l-251 -1434h-205l-242 1014h-10l-178 -1014h-185z" />
<glyph unicode="O" horiz-adv-x="1085" d="M196 360q-1 18 -1 38q0 132 32 319q39 215 94.5 357.5t127 226t159 118.5t191.5 35t180 -35t117 -119t46 -226q1 -16 1 -33q0 -134 -35 -324q-37 -215 -92 -357.5t-127 -226.5t-159 -118.5t-191 -34.5t-180 34.5t-116.5 119t-46.5 226.5zM380 414q1 -119 23.5 -188.5 t64.5 -96.5t91 -27t100.5 27t99.5 96.5t90 188t75 303.5q33 181 33 299q-1 120 -25 192q-24 70 -65.5 96.5t-90.5 26.5t-100 -26.5t-99.5 -96t-90.5 -188.5t-74 -303q-32 -179 -32 -296v-7z" />
<glyph unicode="P" horiz-adv-x="1003" d="M143 0l248 1413q82 23 163 32t173 9q123 0 204 -25.5t124 -85t50 -157.5q2 -22 1 -46q0 -85 -19 -198q-27 -150 -67.5 -250t-99 -160.5t-136 -86t-178.5 -25.5q-47 0 -105.5 6t-97.5 14l-75 -440h-185zM426 563h143q70 0 123 17.5t93 60.5t69 116.5t49 184.5 q15 95 15 163v21q-3 74 -27.5 117t-71.5 60.5t-117 17.5h-143z" />
<glyph unicode="Q" horiz-adv-x="1105" d="M196 360q-1 18 -1 38q0 132 32 319q39 215 94.5 357.5t127 226t159 118.5t191.5 35t180 -35t117 -118.5t46 -226.5q1 -16 1 -33q0 -133 -35 -324q-41 -238 -104.5 -384.5t-147.5 -230.5q78 0 137.5 -12t102.5 -29l-15 -81h-542q-104 0 -180 34.5t-117 118.5t-46 227z M380 414q1 -119 23.5 -188.5t64.5 -96.5t91 -27t100.5 27t99.5 96.5t90 188t75 303.5q33 181 33 299q0 121 -25 192q-23 70 -65 96.5t-91 26.5t-100 -26.5t-99.5 -96t-90.5 -188.5t-74 -303q-32 -179 -32 -296v-7z" />
<glyph unicode="R" horiz-adv-x="1034" d="M143 0l248 1413q82 23 163 32t173 9q123 0 204 -24.5t125 -83t52 -152.5q2 -22 1 -46q0 -80 -19 -185q-18 -104 -45 -180t-62 -130.5t-79 -88.5t-97 -52l156 -512h-205l-144 471h-204l-82 -471h-185zM434 614h144q70 0 123 17.5t93 57.5t66.5 106.5t44.5 167.5 q16 91 16 155q-1 10 -1 18q-2 68 -28 109t-73 58.5t-117 17.5h-143z" />
<glyph unicode="S" horiz-adv-x="911" d="M74 20l16 93h266q176 0 258 62.5t105 193.5q5 29 5 53q0 53 -24 88q-34 51 -92.5 87t-128 68.5t-125.5 82.5q-57 50 -86 128q-16 44 -16 103q0 48 10 106q33 186 143.5 277.5t311.5 91.5q92 0 174 -12t125 -29l-17 -92h-266q-246 0 -287 -236q-5 -31 -5 -57q0 -55 22 -92 q33 -55 91 -93t128 -70t126 -80q56 -47 87 -123q18 -43 18 -103q0 -44 -10 -98q-18 -100 -55 -173t-100.5 -121t-154.5 -71.5t-218 -23.5q-92 0 -174 12t-127 28z" />
<glyph unicode="T" horiz-adv-x="880" d="M248 1290l24 144h840l-25 -144h-327l-228 -1290h-184l227 1290h-327z" />
<glyph unicode="U" horiz-adv-x="1064" d="M188 248q-1 19 -1 40q0 86 22 204l166 942h184l-166 -942q-19 -110 -19 -184v-7q1 -76 22.5 -120t60.5 -61.5t92 -17.5t98 17.5t82 61.5t65.5 120t49.5 191l166 942h184l-166 -942q-27 -145 -67.5 -243.5t-101 -158t-142.5 -85t-189 -25.5q-109 0 -181.5 25.5t-112.5 85 t-46 157.5z" />
<glyph unicode="V" horiz-adv-x="1003" d="M293 1434h184l53 -1239h9l491 1239h184l-579 -1434h-266z" />
<glyph unicode="W" horiz-adv-x="1474" d="M276 0l17 1434h184l-10 -1106h10l373 839h184l78 -839h10l379 1106h185l-488 -1434h-225l-80 860h-8l-383 -860h-226z" />
<glyph unicode="X" horiz-adv-x="942" d="M31 0l436 737l-154 697h185l125 -574l325 574h185l-400 -697l178 -737h-184l-149 614l-363 -614h-184z" />
<glyph unicode="Y" horiz-adv-x="921" d="M272 1434h185l127 -727l385 727h184l-522 -983l-78 -451h-184l77 451z" />
<glyph unicode="Z" horiz-adv-x="829" d="M41 0l22 133l738 1157h-522l24 144h737l-24 -134l-735 -1157h522l-25 -143h-737z" />
<glyph unicode="[" horiz-adv-x="532" d="M78 -369l332 1885h389l-23 -123h-205l-288 -1639h204l-20 -123h-389z" />
<glyph unicode="\" horiz-adv-x="798" d="M252 1434h184l363 -1434h-185z" />
<glyph unicode="]" horiz-adv-x="532" d="M-63 -369l20 123h203l289 1639h-205l22 123h389l-331 -1885h-387z" />
<glyph unicode="^" horiz-adv-x="911" d="M223 922l398 512h174l217 -512l-148 -82l-184 409h-10l-328 -409z" />
<glyph unicode="_" horiz-adv-x="614" d="M-25 -143l25 143h614l-26 -143h-613z" />
<glyph unicode="`" horiz-adv-x="348" d="M293 1434h194l15 -328h-123z" />
<glyph unicode="a" horiz-adv-x="952" d="M159 256q-1 15 -1 32q0 93 24 224q27 154 68 256t101.5 163.5t139 87t183.5 25.5q92 0 169 -15t148 -46l-172 -983h-153v61h-11q-47 -39 -107.5 -60t-121.5 -21q-80 0 -139.5 25.5t-91 87t-36.5 163.5zM345 309q1 -80 20.5 -126t56.5 -63.5t86 -17.5q39 0 82 12.5 t69 28.5l138 779h-144q-49 0 -92 -18.5t-79 -64.5t-65.5 -125t-49.5 -202q-22 -118 -22 -196v-7z" />
<glyph unicode="b" horiz-adv-x="962" d="M150 41l245 1393h185l-78 -441q51 23 101 37t112 14q80 0 139 -25.5t91 -87t37 -163.5q1 -16 1 -34q0 -93 -22 -222q-29 -154 -70 -256t-101.5 -163.5t-139.5 -87t-183 -25.5q-92 0 -169 15t-148 46zM344 102h143q49 0 92.5 17.5t80 63.5t65.5 126t51 203q21 126 21 206 q-1 76 -21 121q-20 46 -57 64.5t-86 18.5q-39 0 -82 -12.5t-70 -28.5z" />
<glyph unicode="c" horiz-adv-x="768" d="M160 256q-1 18 -1 38q0 92 23 218q27 154 68 256t98.5 163.5t133 87t171.5 25.5q61 0 129 -12t111 -28l-14 -82h-205q-57 0 -104.5 -18.5t-85.5 -64.5t-67.5 -125t-49.5 -202q-22 -118 -22 -196v-7q1 -80 24.5 -126t68.5 -63.5t111 -17.5h205l-15 -82q-47 -16 -118.5 -28 t-133.5 -12q-104 0 -174.5 25.5t-108.5 87t-44 163.5z" />
<glyph unicode="d" horiz-adv-x="962" d="M159 256q-1 15 -1 32q0 93 24 224q27 154 67 256t94 163.5t121.5 87t147.5 25.5q61 0 108.5 -14t88.5 -37l78 441h184l-252 -1434h-153v61h-11q-47 -39 -107.5 -60t-121.5 -21q-80 0 -139.5 25.5t-91 87t-36.5 163.5zM345 309q1 -80 20.5 -126t56.5 -63.5t86 -17.5 q39 0 82 12.5t69 28.5l129 738q-20 16 -58 28.5t-77 12.5q-49 0 -92 -18.5t-79 -64.5t-65.5 -125t-49.5 -202q-22 -118 -22 -196v-7z" />
<glyph unicode="e" horiz-adv-x="880" d="M160 256q-1 18 -1 38q0 92 23 218q27 154 68 256t98.5 163.5t133 87t171.5 25.5q178 0 254 -87q55 -63 55 -161q0 -37 -8 -79q-25 -139 -120 -213t-287 -74h-195q-14 -72 -14 -127q0 -85 34 -129q54 -72 208 -72h204l-14 -82q-47 -16 -118.5 -28t-133.5 -12 q-115 0 -192.5 25.5t-118.5 87t-47 163.5zM373 553h194q86 0 137.5 43t65.5 121q5 30 5 57q-1 60 -29 100q-42 58 -111 58q-43 0 -81 -17.5t-71.5 -60.5t-61.5 -116.5t-48 -184.5z" />
<glyph unicode="f" horiz-adv-x="655" d="M-231 -389l14 82h184q23 0 49.5 9t52 33.5t46 68.5t32.5 114l168 952h-122l24 134h123l14 81q18 106 52 175t79 107t100.5 52.5t116.5 14.5q23 0 53.5 -3.5t61.5 -9.5t57.5 -13t45.5 -15l-15 -82h-184q-23 0 -49.5 -9.5t-52 -34t-47 -68.5t-33.5 -114l-15 -81h287 l-16 -93q-49 -16 -121 -28.5t-133 -12.5h-41l-168 -952q-18 -109 -52 -176.5t-79 -105t-99.5 -52t-115.5 -14.5q-23 0 -53.5 3t-61.5 9t-57.5 13.5t-44.5 15.5z" />
<glyph unicode="g" horiz-adv-x="952" d="M94 -389l15 82h204q70 0 123 16.5t92 56t67 104.5t44 161q-49 -23 -100.5 -37t-112.5 -14q-80 0 -139.5 25.5t-91 87t-36.5 163.5q-1 15 -1 32q0 93 24 224q27 154 68 256t101.5 163.5t139 87t183.5 25.5q92 0 169 -15t148 -46l-157 -901q-27 -145 -68 -243.5 t-101.5 -158t-143.5 -85t-189 -25.5q-61 0 -128 12t-110 29zM345 309q1 -80 20.5 -126t56.5 -63.5t86 -17.5q39 0 82 12.5t69 28.5l138 779h-144q-49 0 -92 -18.5t-79 -64.5t-65.5 -125t-49.5 -202q-22 -118 -22 -196v-7z" />
<glyph unicode="h" horiz-adv-x="983" d="M143 0l252 1434h185l-78 -441q51 23 107.5 37t125.5 14q66 0 118 -13t86 -48t45 -95q4 -24 5 -53q0 -43 -10 -98l-129 -737h-184l129 737q4 26 4 47q-1 23 -5 42q-8 36 -29.5 57.5t-55 30t-76.5 8.5q-39 0 -82 -12.5t-70 -28.5l-153 -881h-185z" />
<glyph unicode="i" d="M143 0l181 1024h184l-180 -1024h-185zM348 1167l39 226h184l-39 -226h-184z" />
<glyph unicode="j" horiz-adv-x="491" d="M-190 -389l14 82h143q23 0 49.5 9t52 33.5t46 68.5t32.5 114l197 1106h184l-196 -1106q-18 -109 -52 -176.5t-79 -105t-99.5 -52t-115.5 -14.5q-47 0 -94.5 12t-81.5 29zM369 1167l39 226h184l-39 -226h-184z" />
<glyph unicode="k" horiz-adv-x="890" d="M143 0l252 1434h185l-156 -881l381 471h205l-404 -481l264 -543h-204l-246 532l-92 -532h-185z" />
<glyph unicode="l" d="M143 0l252 1434h185l-252 -1434h-185z" />
<glyph unicode="m" horiz-adv-x="1413" d="M133 0l180 1024h154l-2 -61h10q47 39 98.5 60t120.5 21q70 0 126.5 -19t88.5 -71q29 23 65 39.5t71.5 27.5t69.5 17t61 6q61 0 111 -13t83 -48t44 -95q4 -24 4 -53q0 -43 -9 -98l-129 -737h-184l129 737q4 28 4 52q0 21 -3 37q-7 36 -26.5 57.5t-47.5 30t-58 8.5 q-47 0 -91.5 -12.5t-70.5 -28.5q4 -23 4 -60t-8 -84l-129 -737h-185l129 737q4 28 4 52q0 21 -3 37q-7 36 -26.5 57.5t-47 30t-58.5 8.5q-39 0 -76.5 -12.5t-64.5 -28.5l-154 -881h-184z" />
<glyph unicode="n" horiz-adv-x="972" d="M133 0l180 1024h154l-2 -61h10q47 39 107.5 60t122.5 21q74 0 130 -13t91 -48t47 -95q5 -26 5 -56q0 -42 -9 -95l-129 -737h-185l129 737q4 26 4 48.5t-4 40.5q-8 36 -29.5 57.5t-55 30t-76.5 8.5q-39 0 -82 -12.5t-70 -28.5l-154 -881h-184z" />
<glyph unicode="o" horiz-adv-x="942" d="M162 260q-1 19 -1 40q0 90 21 212q27 150 69 252t100.5 164.5t134 89t167.5 26.5t159 -26.5t103.5 -89t44.5 -164.5q2 -22 1 -47q0 -88 -21 -205q-27 -150 -70 -252t-101 -164.5t-134 -89t-168 -26.5t-158.5 26.5t-103.5 89t-43 164.5zM345 308q1 -81 19.5 -129t50 -67.5 t70.5 -19.5t78 19.5t74 67.5t65.5 129t53.5 204q19 117 19 196v8q-1 81 -19.5 129t-50 67.5t-70.5 19.5t-78 -19.5t-73.5 -67.5t-65.5 -129t-51 -204q-22 -118 -22 -197v-7z" />
<glyph unicode="p" horiz-adv-x="952" d="M59 -410l254 1434h154l-2 -61h10q47 39 107.5 60t122.5 21q80 0 139 -25.5t91 -87t37 -163.5q1 -16 1 -33q0 -93 -23 -223q-29 -154 -68.5 -256t-94 -163.5t-122 -87t-147.5 -25.5q-61 0 -107 14t-89 37l-78 -441h-185zM342 143q20 -16 58 -28.5t77 -12.5q49 0 92 17.5 t80 63.5t65.5 126t51.5 203q20 123 20 202t-20.5 125t-57 64.5t-85.5 18.5q-39 0 -82 -12.5t-70 -28.5z" />
<glyph unicode="q" horiz-adv-x="952" d="M159 256q-1 15 -1 32q0 93 24 224q27 154 68 256t101.5 163.5t139 87t183.5 25.5q92 0 169 -15t148 -46l-246 -1393h-184l78 441q-49 -23 -100.5 -37t-112.5 -14q-80 0 -139.5 25.5t-91 87t-36.5 163.5zM345 309q1 -80 20.5 -126t56.5 -63.5t86 -17.5q39 0 82 12.5 t69 28.5l138 779h-144q-49 0 -92 -18.5t-79 -64.5t-65.5 -125t-49.5 -202q-22 -118 -22 -196v-7z" />
<glyph unicode="r" horiz-adv-x="686" d="M133 0l180 1024h156l-4 -82h10q41 31 108.5 56.5t159.5 25.5h103l-29 -154h-205q-39 0 -76.5 -9t-72.5 -32l-146 -829h-184z" />
<glyph unicode="s" horiz-adv-x="808" d="M84 20l14 82h205q139 0 209 36t86 128q3 16 3 30q1 40 -21 67q-28 36 -76.5 63t-107 50.5t-105.5 59.5q-47 38 -73 94q-16 35 -15 82q0 30 6 66q27 154 128 210t286 56q61 0 128.5 -12t110.5 -28l-14 -82h-205q-109 0 -173.5 -33t-76.5 -111q-3 -16 -2 -30q1 -40 21 -67 q28 -36 76.5 -62.5t106.5 -50t105 -60.5q48 -38 74 -94q15 -34 15 -80q0 -31 -7 -68q-14 -84 -48 -139t-89 -88t-135 -46t-186 -13q-61 0 -128 12t-112 28z" />
<glyph unicode="t" horiz-adv-x="706" d="M193 870l24 134h123l43 245h184l-43 -245h287l-16 -93q-49 -16 -121 -28.5t-133 -12.5h-41l-94 -542q-8 -47 -8 -82q0 -18 2 -32q6 -44 22 -68.5t39.5 -34t46.5 -9.5h184l-14 -82q-20 -8 -50 -15t-63 -13t-64.5 -9t-54.5 -3q-61 0 -111 14t-82 52t-41 106q-3 22 -3 49 q0 54 12 127l94 542h-122z" />
<glyph unicode="u" horiz-adv-x="972" d="M178 136q-5 26 -5 56q0 42 9 95l131 737h185l-131 -737q-5 -28 -5 -51q0 -21 4 -38q9 -36 30.5 -57.5t55 -30t76.5 -8.5q39 0 82 12.5t70 28.5l156 881h184l-180 -1024h-154v61h-10q-47 -39 -107.5 -60t-122.5 -21q-74 0 -130 13t-91 48t-47 95z" />
<glyph unicode="v" horiz-adv-x="880" d="M211 1024h174l80 -850h8l383 850h174l-457 -1024h-266z" />
<glyph unicode="w" horiz-adv-x="1249" d="M211 1024h174l4 -778h10l287 573h164l86 -573h10l279 778h174l-365 -1024h-225l-84 553h-8l-277 -553h-225z" />
<glyph unicode="x" horiz-adv-x="819" d="M31 0l346 522l-158 502h184l119 -379l254 379h185l-338 -502l165 -522h-184l-125 399l-264 -399h-184z" />
<glyph unicode="y" horiz-adv-x="972" d="M115 -389l14 82h205q70 0 123 16.5t92 56t66.5 104t43.5 161.5q-49 -23 -100.5 -37t-112.5 -14q-74 0 -130 13t-91 48t-47 95q-5 25 -5 56q0 42 9 95l131 737h185l-131 -737q-5 -28 -5 -51q0 -21 4 -38q9 -36 30.5 -57.5t55 -30t76.5 -8.5q39 0 82 12.5t70 28.5l156 881 h184l-166 -942q-27 -145 -68 -243.5t-101 -158t-143 -85t-190 -25.5q-61 0 -127.5 12t-109.5 29z" />
<glyph unicode="z" horiz-adv-x="757" d="M41 0l20 123l596 768h-440l25 133h655l-23 -123l-593 -768h448l-22 -133h-666z" />
<glyph unicode="{" horiz-adv-x="593" d="M131 512l21 123q41 12 74.5 30.5t60 49t45 76t30.5 110.5l48 266q18 106 54 175t90 107t130 52.5t176 14.5l-22 -123q-47 0 -86 -9.5t-70 -34t-53.5 -68.5t-34.5 -114l-39 -225q-16 -84 -36.5 -141.5t-49.5 -97t-64.5 -68.5t-78.5 -57v-9q33 -29 58.5 -58.5t38.5 -69.5 t14 -96t-13 -140l-39 -225q-12 -70 -5 -114t28.5 -68.5t57.5 -34t83 -9.5l-21 -123q-100 0 -170.5 14.5t-111.5 52.5t-52.5 105.5t7.5 176.5l47 266q12 66 8 110.5t-19.5 75.5t-42 49.5t-63.5 30.5z" />
<glyph unicode="|" d="M70 -410l325 1844h185l-326 -1844h-184z" />
<glyph unicode="}" horiz-adv-x="593" d="M-63 -369l20 123q45 0 84 9.5t70.5 34t54 68.5t35.5 114l39 225q14 84 35.5 140t50 96t64.5 70t79 58v9q-33 29 -58.5 57.5t-39 68t-15.5 97t15 141.5l39 225q12 70 5 114t-30 68.5t-59.5 34t-81.5 9.5l22 123q100 0 171 -14.5t112 -52.5t52 -106.5t-7 -175.5l-47 -266 q-12 -66 -8 -111t19 -75.5t42 -49t64 -30.5l-21 -123q-41 -12 -74.5 -30.5t-60.5 -49.5t-45.5 -76t-30.5 -110l-47 -266q-18 -109 -54 -176.5t-90.5 -105.5t-130 -52.5t-173.5 -14.5z" />
<glyph unicode="~" horiz-adv-x="921" d="M190 737h144q-12 -70 5 -111.5t71 -41.5q35 0 65.5 25.5t67.5 56t85 56.5t117 26q70 0 113 -23t63.5 -66t22.5 -106.5t-12 -142.5h-144q12 70 -5 111.5t-70 41.5q-35 0 -66 -25.5t-67.5 -56t-85 -56.5t-117.5 -26q-139 0 -177 88t-10 250z" />
<glyph unicode="&#xa1;" d="M123 0l211 1055h164l-150 -1055h-225zM352 1219l41 225h185l-41 -225h-185z" />
<glyph unicode="&#xa2;" horiz-adv-x="768" d="M159 275.5q-1 97.5 23 236.5q25 143 62 241.5t89 161t118.5 92t150.5 35.5l23 125h123l-23 -127q47 -6 91 -16t77 -20l-14 -82h-174l-146 -820h195l-15 -82q-39 -12 -93 -23t-107 -15l-19 -105h-123l19 107q-84 8 -140.5 38.5t-86 93t-30.5 160zM346.5 352.5 q-4.5 -67.5 4.5 -115t32 -76t57 -42.5l140 788q-76 -27 -128 -116t-85 -279q-16 -92 -20.5 -159.5z" />
<glyph unicode="&#xa3;" horiz-adv-x="849" d="M92 0l17 102q53 31 93 102.5t68 225.5l39 225h-123l25 144h123l41 225q25 137 62.5 222t96 131t138.5 61.5t188 15.5q47 0 94 -12t82 -29l-16 -92h-184q-53 0 -97.5 -10.5t-78 -42t-59.5 -90t-42 -154.5l-41 -225h307l-24 -144h-307l-31 -176q-29 -154 -69 -225.5 t-91 -101.5l-2 -9h533l-25 -143h-717z" />
<glyph unicode="&#xa4;" horiz-adv-x="1064" d="M127 379l168 143q-16 39 -21.5 90.5t5.5 104.5q10 53 33.5 104t52.5 90l-119 144l121 102l120 -133q45 39 112 60.5t126 21.5q63 0 121.5 -21.5t91.5 -60.5l166 133l84 -102l-168 -144q34 -81 16 -194q-10 -53 -32.5 -104.5t-53.5 -90.5l119 -143l-121 -103l-119 134 q-47 -39 -112.5 -60.5t-128.5 -21.5q-59 0 -118.5 21.5t-90.5 60.5l-168 -134zM473 717q-23 -131 19.5 -193.5t119.5 -62.5q78 0 142.5 62.5t87.5 193.5t-19.5 193.5t-120.5 62.5t-142 -62.5t-87 -193.5z" />
<glyph unicode="&#xa5;" horiz-adv-x="921" d="M197 420l24 143h205l-20 123h-162l24 143h111l-107 605h185l127 -727l385 727h184l-322 -605h113l-24 -143h-164l-66 -123h207l-25 -143h-245l-74 -420h-184l73 420h-245z" />
<glyph unicode="&#xa6;" d="M70 -410l131 738h184l-131 -738h-184zM258 655l129 738h184l-129 -738h-184z" />
<glyph unicode="&#xa7;" horiz-adv-x="890" d="M23 -389l14 82h235q162 0 240 56t94 149q12 72 -20.5 116.5t-87 78.5t-119 65.5t-116.5 76t-80.5 110t-10.5 167.5q10 59 34.5 107.5t59.5 87t76 67.5t84 49q-33 20 -60.5 48t-46 65t-24.5 83t4 107q29 154 139.5 241t319.5 87q78 0 151.5 -12t116.5 -29l-14 -82h-236 q-131 0 -203.5 -56t-89.5 -149q-12 -72 18.5 -116.5t83 -78.5t115 -65.5t112.5 -76t78 -110t9 -167.5q-23 -117 -93.5 -191.5t-156.5 -115.5q35 -23 65.5 -50.5t51 -63.5t28 -84t-2.5 -109q-14 -78 -49 -138.5t-95.5 -102.5t-148.5 -64.5t-207 -22.5q-78 0 -151.5 12 t-116.5 29zM356 512q-10 -51 2.5 -89t39 -66.5t63.5 -51t78 -43.5q63 33 110 90.5t66 159.5q8 51 -4.5 89t-38 66.5t-63.5 51t-77 43.5q-63 -31 -111.5 -88.5t-64.5 -161.5z" />
<glyph unicode="&#xa8;" horiz-adv-x="593" d="M250 1188l39 225h184l-39 -225h-184zM578 1188l38 225h185l-39 -225h-184z" />
<glyph unicode="&#xa9;" horiz-adv-x="1658" d="M214 400.5q-28 140.5 3 316.5t107.5 316.5t190.5 238.5t258 150.5t314 52.5q168 0 296 -52.5t207 -150.5t105.5 -238.5t-3.5 -316.5q-31 -176 -108 -316.5t-189.5 -239t-259 -150.5t-314.5 -52q-170 0 -297 52t-204.5 150.5t-105.5 239zM394 444.5q20 -118.5 79 -198.5 t153.5 -122t217.5 -42t231.5 42t195.5 122t148.5 198.5t87.5 272.5q27 154 7.5 272.5t-78 198.5t-152.5 122t-217 42t-232.5 -42t-196.5 -122t-148.5 -199t-88.5 -272q-27 -154 -7 -272.5zM609 482.5q-7 89.5 18 234.5q27 145 64.5 234t91 137.5t121 63.5t151.5 15 q70 0 127 -12t100 -29l-14 -82h-195q-53 0 -97 -11t-79 -45t-61.5 -99.5t-44.5 -171.5q-18 -109 -14.5 -173.5t26 -98t62.5 -45t93 -11.5h216l-15 -82q-49 -16 -121.5 -28.5t-142.5 -12.5q-84 0 -146.5 15.5t-97.5 63.5t-42 137.5z" />
<glyph unicode="&#xaa;" horiz-adv-x="583" d="M236.5 912q-9.5 38 1.5 92q18 106 84.5 150t144.5 44q18 0 40.5 -2t43.5 -4q23 -2 47 -4l6 41q10 61 -16.5 86.5t-95.5 25.5h-144l14 78q33 10 81.5 17.5t86.5 7.5q57 0 101.5 -9.5t72 -33t37 -65.5t-3.5 -107l-71 -410h-123l-2 41q-35 -23 -76 -37t-88 -14 q-31 0 -59.5 10t-50 32.5t-31 60.5zM371 1004q-8 -47 15.5 -70t70.5 -23q45 0 98 31l27 154h-93q-47 0 -78.5 -22.5t-39.5 -69.5z" />
<glyph unicode="&#xab;" horiz-adv-x="890" d="M131 512l391 420l119 -82l-305 -334l-2 -8l186 -334l-147 -82zM469 512l391 420l119 -82l-305 -334l-2 -8l186 -334l-147 -82z" />
<glyph unicode="&#xac;" horiz-adv-x="860" d="M182 696l27 144h737l-61 -348h-133l18 204h-588z" />
<glyph unicode="&#xad;" horiz-adv-x="737" d="M154 532l28 164h615l-29 -164h-614z" />
<glyph unicode="&#xae;" horiz-adv-x="1658" d="M214 400.5q-28 140.5 3 316.5t107.5 316.5t190.5 238.5t258 150.5t314 52.5q168 0 296 -52.5t207 -150.5t105.5 -238.5t-3.5 -316.5q-31 -176 -108 -316.5t-189.5 -239t-259 -150.5t-314.5 -52q-170 0 -297 52t-204.5 150.5t-105.5 239zM394 444.5q20 -118.5 79 -198.5 t153.5 -122t217.5 -42t231.5 42t195.5 122t148.5 198.5t87.5 272.5q27 154 7.5 272.5t-78 198.5t-152.5 122t-217 42t-232.5 -42t-196.5 -122t-148.5 -199t-88.5 -272q-27 -154 -7 -272.5zM592 287l147 839q57 16 125 28.5t160 12.5q76 0 135.5 -13t95 -46t48 -88t-2.5 -139 q-10 -61 -31.5 -103.5t-47 -70t-54 -44t-53.5 -28.5l103 -348h-175l-88 307h-143l-55 -307h-164zM831 717h113q31 0 61.5 8t57.5 27.5t46 50.5t28 78q8 45 -0.5 76.5t-29 51t-48 27.5t-58.5 8h-112z" />
<glyph unicode="&#xaf;" horiz-adv-x="552" d="M270 1311l23 123h471l-23 -123h-471z" />
<glyph unicode="&#xb0;" horiz-adv-x="778" d="M279 1126q29 154 128 241t238 87q70 0 122 -22.5t85 -64.5t44 -103.5t-3 -137.5q-27 -154 -126 -240.5t-239 -86.5q-139 0 -207.5 87t-41.5 240zM442 1126q-18 -109 15 -156.5t94 -47.5t110.5 48t67.5 156q20 109 -12.5 157t-93.5 48t-110.5 -48t-70.5 -157z" />
<glyph unicode="&#xb1;" horiz-adv-x="880" d="M78 102l26 144h758l-26 -144h-758zM170 625l27 143h297l55 317h164l-56 -317h297l-26 -143h-297l-56 -318h-163l55 318h-297z" />
<glyph unicode="&#xb2;" horiz-adv-x="522" d="M205 819l20 113q61 43 116.5 83t98.5 80t72 77.5t35 76.5t-18.5 65.5t-77.5 26.5h-134l15 80q33 10 77 16.5t91 6.5q109 0 152.5 -51.5t27.5 -143.5q-16 -86 -90 -160.5t-213 -166.5h246l-19 -103h-399z" />
<glyph unicode="&#xb3;" horiz-adv-x="522" d="M207 831l14 80h154q53 0 87 21.5t40 60.5q8 47 -15.5 69.5t-70.5 22.5h-92l18 103h82q53 0 76.5 25.5t29.5 56.5q4 31 -16 51t-76 20h-141l14 80q31 10 76 16.5t92 6.5q100 0 150.5 -37t34.5 -137q-8 -47 -44 -81t-63 -42q39 -8 64.5 -46t13.5 -108q-18 -109 -91 -146.5 t-188 -37.5q-47 0 -83.5 6t-65.5 16z" />
<glyph unicode="&#xb4;" horiz-adv-x="348" d="M242 1147l118 266h195l-190 -266h-123z" />
<glyph unicode="&#xb5;" horiz-adv-x="972" d="M59 -410l254 1434h185l-123 -696q-20 -109 23.5 -167.5t129.5 -58.5q39 0 82 12.5t70 28.5l156 881h184l-180 -1024h-154v61h-10q-47 -39 -97.5 -60t-111.5 -21q-33 0 -58.5 9t-44 19t-28.5 20.5t-12 12.5l-80 -451h-185z" />
<glyph unicode="&#xb6;" horiz-adv-x="1085" d="M246 1055q12 74 51 141.5t96.5 120.5t131 85t157.5 32h614l-24 -144h-144l-301 -1700h-163l301 1700h-144l-301 -1700h-164l193 1086q-170 0 -252 100.5t-51 278.5z" />
<glyph unicode="&#xb7;" horiz-adv-x="512" d="M270 604l39 225h185l-39 -225h-185z" />
<glyph unicode="&#xb8;" horiz-adv-x="409" d="M-12 -307l10 61h131q61 0 72 51q6 51 -54 52h-112l31 174h102l-14 -82h30q86 0 123 -41t27 -103q-10 -61 -62.5 -102t-138.5 -41q-35 0 -61.5 4t-44.5 10q-23 8 -39 17z" />
<glyph unicode="&#xb9;" horiz-adv-x="378" d="M295 1331l14 78q33 10 89.5 17.5t109.5 7.5h61l-108 -615h-133l90 512h-123z" />
<glyph unicode="&#xba;" horiz-adv-x="614" d="M252 986.5q-8 60.5 6 139.5q29 162 112 240t191 78q109 0 163.5 -78t25.5 -240t-111 -239.5t-190 -77.5q-53 0 -95.5 19.5t-68 58.5t-33.5 99.5zM383 1024q2 -41 12.5 -66.5t29.5 -36t42 -10.5q47 0 86.5 46t62.5 169t-1.5 169t-71.5 46t-88 -46t-64 -169 q-10 -61 -8 -102z" />
<glyph unicode="&#xbb;" horiz-adv-x="890" d="M90 174l305 334l2 8l-186 334l147 82l244 -420l-393 -420zM428 174l305 334l2 8l-186 334l147 82l244 -420l-393 -420z" />
<glyph unicode="&#xbc;" horiz-adv-x="1146" d="M82 0l1051 1434h163l-1050 -1434h-164zM326 1331l14 78q33 10 89 17.5t110 7.5h71l-108 -615h-144l91 512h-123zM565 133l19 103l352 378h143l-65 -378h61l-18 -103h-62l-22 -133h-133l22 133h-297zM727 236h154l34 200z" />
<glyph unicode="&#xbd;" horiz-adv-x="1208" d="M102 0l1051 1434h164l-1051 -1434h-164zM346 1331l14 78q33 10 89.5 17.5t109.5 7.5h72l-109 -615h-143l90 512h-123zM686 0l19 113q61 43 116.5 83t99.5 79.5t72.5 77.5t34.5 77t-19.5 65.5t-78.5 26.5h-133l14 80q33 10 77 16.5t91 6.5q109 0 154 -51.5t28 -143.5 q-16 -86 -90 -160.5t-215 -167.5h246l-17 -102h-399z" />
<glyph unicode="&#xbe;" horiz-adv-x="1157" d="M92 0l1051 1434h164l-1051 -1434h-164zM227 831l15 80h153q53 0 87 21.5t40 60.5q8 47 -15.5 69.5t-70.5 22.5h-92l18 103h82q53 0 77 25.5t30 56.5q4 31 -16.5 51t-75.5 20h-142l15 80q31 10 76 16.5t92 6.5q100 0 150 -37t34 -137q-8 -47 -44 -81t-62 -42 q39 -8 64.5 -46t12.5 -108q-18 -109 -90.5 -146.5t-187.5 -37.5q-47 0 -84 6t-66 16zM575 133l19 103l352 378h144l-66 -378h61l-18 -103h-61l-23 -133h-133l22 133h-297zM737 236h154l35 200z" />
<glyph unicode="&#xbf;" horiz-adv-x="757" d="M125 369q16 86 51 150.5t79 115.5t93 95t92 92t77 103.5t46 129.5h164q-16 -90 -50 -155.5t-76 -118t-88 -96.5t-87 -90t-72.5 -100.5t-44.5 -125.5q-23 -131 24.5 -193.5t155.5 -62.5h267l-17 -93q-47 -16 -134 -28t-179 -12q-186 0 -261 94t-40 295zM582 1219l41 225 h184l-41 -225h-184z" />
<glyph unicode="&#xc0;" horiz-adv-x="1044" d="M41 0l600 1434h266l97 -1434h-185l-28 369h-410l-156 -369h-184zM438 512h348l-45 717h-8zM645 1802h195l24 -266h-123z" />
<glyph unicode="&#xc1;" horiz-adv-x="1044" d="M41 0l600 1434h266l97 -1434h-185l-28 369h-410l-156 -369h-184zM438 512h348l-45 717h-8zM721 1536l119 266h194l-190 -266h-123z" />
<glyph unicode="&#xc2;" horiz-adv-x="1044" d="M41 0l600 1434h266l97 -1434h-185l-28 369h-410l-156 -369h-184zM438 512h348l-45 717h-8zM543 1536l200 266h195l106 -266h-122l-103 152l-153 -152h-123z" />
<glyph unicode="&#xc3;" horiz-adv-x="1044" d="M41 0l600 1434h266l97 -1434h-185l-28 369h-410l-156 -369h-184zM438 512h348l-45 717h-8zM573 1751h103q-16 -92 35 -92q18 0 38.5 19.5t45 42t54.5 42t69 19.5q78 0 107.5 -49.5t6.5 -165.5h-102q10 47 -1 69.5t-34 22.5q-18 0 -38.5 -19.5t-44.5 -42t-53.5 -42 t-68.5 -19.5q-78 0 -107.5 49t-9.5 166z" />
<glyph unicode="&#xc4;" horiz-adv-x="1044" d="M41 0l600 1434h266l97 -1434h-185l-28 369h-410l-156 -369h-184zM438 512h348l-45 717h-8zM541 1556l39 226h184l-39 -226h-184zM868 1556l39 226h185l-39 -226h-185z" />
<glyph unicode="&#xc5;" horiz-adv-x="1044" d="M41 0l600 1434h266l97 -1434h-185l-28 369h-410l-156 -369h-184zM438 512h348l-45 717h-8zM639 1659q14 78 69.5 121t133.5 43t118.5 -43t26.5 -121q-12 -78 -68.5 -121t-134.5 -43t-117.5 43t-27.5 121zM741 1659q-6 -39 11.5 -55.5t48.5 -16.5t54.5 16.5t29.5 55.5 q8 39 -10.5 55.5t-49.5 16.5t-53 -16.5t-31 -55.5z" />
<glyph unicode="&#xc6;" horiz-adv-x="1497" d="M0 0l743 1434h924l-25 -144h-512l-83 -471h450l-24 -143h-451l-94 -533h512l-25 -143h-696l63 369h-407l-191 -369h-184zM451 512h358l137 778h-92z" />
<glyph unicode="&#xc7;" horiz-adv-x="890" d="M195 396q0 132 32 321q39 215 93.5 357.5t125 226t156.5 118.5t186 35q92 0 174 -12t125 -29l-16 -92h-266q-61 0 -118.5 -26.5t-108 -95.5t-92.5 -185.5t-74 -296.5q-31 -180 -30 -297t29.5 -185.5t80 -95t120.5 -26.5h267l-17 -93q-47 -16 -134 -28t-179 -12l-6 -31h30 q86 0 123 -41t27 -103q-10 -61 -65.5 -102t-155.5 -41q-35 0 -62.5 4t-46.5 10q-23 8 -39 17l11 61h133q47 0 67.5 14.5t24.5 36.5q6 51 -53 52h-113l22 131q-80 14 -137 59t-85.5 131t-28.5 218z" />
<glyph unicode="&#xc8;" horiz-adv-x="921" d="M143 0l252 1434h697l-25 -144h-512l-84 -471h451l-25 -143h-451l-94 -533h512l-24 -143h-697zM625 1802h194l25 -266h-123z" />
<glyph unicode="&#xc9;" horiz-adv-x="921" d="M143 0l252 1434h697l-25 -144h-512l-84 -471h451l-25 -143h-451l-94 -533h512l-24 -143h-697zM700 1536l119 266h195l-191 -266h-123z" />
<glyph unicode="&#xca;" horiz-adv-x="921" d="M143 0l252 1434h697l-25 -144h-512l-84 -471h451l-25 -143h-451l-94 -533h512l-24 -143h-697zM506 1536l201 266h194l107 -266h-123l-103 152l-153 -152h-123z" />
<glyph unicode="&#xcb;" horiz-adv-x="921" d="M143 0l252 1434h697l-25 -144h-512l-84 -471h451l-25 -143h-451l-94 -533h512l-24 -143h-697zM502 1577l41 225h184l-41 -225h-184zM829 1577l41 225h185l-41 -225h-185z" />
<glyph unicode="&#xcc;" horiz-adv-x="460" d="M133 0l252 1434h184l-252 -1434h-184zM348 1802h195l24 -266h-123z" />
<glyph unicode="&#xcd;" d="M143 0l252 1434h185l-252 -1434h-185zM444 1536l119 266h195l-191 -266h-123z" />
<glyph unicode="&#xce;" horiz-adv-x="440" d="M123 0l252 1434h184l-252 -1434h-184zM240 1536l200 266h195l106 -266h-123l-102 152l-154 -152h-122z" />
<glyph unicode="&#xcf;" d="M143 0l252 1434h185l-252 -1434h-185zM256 1577l41 225h184l-41 -225h-184zM584 1577l41 225h184l-41 -225h-184z" />
<glyph unicode="&#xd0;" horiz-adv-x="1105" d="M135 655l25 144h164l108 614q82 23 163 32t173 9q123 0 209 -35t132 -118.5t52 -226t-33 -357.5q-37 -215 -93 -357.5t-132 -226.5t-174 -118.5t-221 -34.5q-92 0 -170 9t-152 31l113 635h-164zM387 113h143q70 0 131.5 26.5t113.5 95t95 185.5t74 297q33 180 31 296.5 t-29.5 185.5t-80 95.5t-122.5 26.5h-143l-92 -522h225l-24 -144h-226z" />
<glyph unicode="&#xd1;" horiz-adv-x="1105" d="M143 0l252 1434h205l242 -1014h10l178 1014h184l-251 -1434h-205l-242 1014h-10l-178 -1014h-185zM594 1751h102q-16 -92 35 -92q18 0 39 19.5t45.5 42t54 42t68.5 19.5q78 0 107.5 -49.5t7.5 -165.5h-103q10 47 -1 69.5t-34 22.5q-18 0 -38.5 -19.5t-44 -42t-53 -42 t-68.5 -19.5q-78 0 -108 49t-9 166z" />
<glyph unicode="&#xd2;" horiz-adv-x="1085" d="M195.5 359.5q-5.5 142.5 31.5 357.5q39 215 94.5 357.5t127 226t159 118.5t191.5 35t180 -35t117 -118.5t46 -226t-34 -357.5q-37 -215 -92 -357.5t-127 -226.5t-159 -118.5t-191 -34.5t-180 34.5t-117 118.5t-46.5 226.5zM380 414q1 -119 23.5 -188.5t64.5 -96.5t91 -27 t100.5 27t99.5 96.5t90 188t75 303.5q33 184 32.5 303t-24 188.5t-65.5 96t-91 26.5t-100 -26.5t-99.5 -96t-90.5 -188.5t-74 -303q-33 -184 -32 -303zM668 1823h194l27 -267h-123z" />
<glyph unicode="&#xd3;" horiz-adv-x="1085" d="M195.5 359.5q-5.5 142.5 31.5 357.5q39 215 94.5 357.5t127 226t159 118.5t191.5 35t180 -35t117 -118.5t46 -226t-34 -357.5q-37 -215 -92 -357.5t-127 -226.5t-159 -118.5t-191 -34.5t-180 34.5t-117 118.5t-46.5 226.5zM380 414q1 -119 23.5 -188.5t64.5 -96.5t91 -27 t100.5 27t99.5 96.5t90 188t75 303.5q33 184 32.5 303t-24 188.5t-65.5 96t-91 26.5t-100 -26.5t-99.5 -96t-90.5 -188.5t-74 -303q-33 -184 -32 -303zM745 1556l117 267h195l-189 -267h-123z" />
<glyph unicode="&#xd4;" horiz-adv-x="1085" d="M195.5 359.5q-5.5 142.5 31.5 357.5q39 215 94.5 357.5t127 226t159 118.5t191.5 35t180 -35t117 -118.5t46 -226t-34 -357.5q-37 -215 -92 -357.5t-127 -226.5t-159 -118.5t-191 -34.5t-180 34.5t-117 118.5t-46.5 226.5zM380 414q1 -119 23.5 -188.5t64.5 -96.5t91 -27 t100.5 27t99.5 96.5t90 188t75 303.5q33 184 32.5 303t-24 188.5t-65.5 96t-91 26.5t-100 -26.5t-99.5 -96t-90.5 -188.5t-74 -303q-33 -184 -32 -303zM571 1556l199 267h195l108 -267h-123l-102 152l-154 -152h-123z" />
<glyph unicode="&#xd5;" horiz-adv-x="1085" d="M195.5 359.5q-5.5 142.5 31.5 357.5q39 215 94.5 357.5t127 226t159 118.5t191.5 35t180 -35t117 -118.5t46 -226t-34 -357.5q-37 -215 -92 -357.5t-127 -226.5t-159 -118.5t-191 -34.5t-180 34.5t-117 118.5t-46.5 226.5zM380 414q1 -119 23.5 -188.5t64.5 -96.5t91 -27 t100.5 27t99.5 96.5t90 188t75 303.5q33 184 32.5 303t-24 188.5t-65.5 96t-91 26.5t-100 -26.5t-99.5 -96t-90.5 -188.5t-74 -303q-33 -184 -32 -303zM598 1772h102q-16 -92 35 -93q18 0 39 19.5t45.5 42t54 42t68.5 19.5q78 0 106.5 -49t8.5 -166h-103q14 92 -34 92 q-18 0 -39 -19.5t-44.5 -42t-53 -42t-68.5 -19.5q-78 0 -107.5 49.5t-9.5 166.5z" />
<glyph unicode="&#xd6;" horiz-adv-x="1085" d="M195.5 359.5q-5.5 142.5 31.5 357.5q39 215 94.5 357.5t127 226t159 118.5t191.5 35t180 -35t117 -118.5t46 -226t-34 -357.5q-37 -215 -92 -357.5t-127 -226.5t-159 -118.5t-191 -34.5t-180 34.5t-117 118.5t-46.5 226.5zM380 414q1 -119 23.5 -188.5t64.5 -96.5t91 -27 t100.5 27t99.5 96.5t90 188t75 303.5q33 184 32.5 303t-24 188.5t-65.5 96t-91 26.5t-100 -26.5t-99.5 -96t-90.5 -188.5t-74 -303q-33 -184 -32 -303zM563 1577l41 225h184l-40 -225h-185zM891 1577l41 225h184l-41 -225h-184z" />
<glyph unicode="&#xd7;" horiz-adv-x="819" d="M162 461l254 215l-178 215l133 113l176 -216l254 216l92 -113l-252 -215l176 -215l-133 -113l-176 215l-254 -215z" />
<glyph unicode="&#xd8;" horiz-adv-x="1105" d="M78 102l137 156q-14 84 -9 196.5t32 262.5q39 215 94 357.5t126.5 226t159 118.5t191.5 35q109 0 185.5 -38t117.5 -132l94 109l72 -62l-135 -155q12 -84 7 -197t-32 -262q-37 -215 -92 -357.5t-127 -226.5t-159 -118.5t-191 -34.5q-111 0 -187.5 37.5t-117.5 132.5 l-94 -109zM391 461l570 651q-6 63 -22.5 105.5t-39 68t-51.5 35.5t-62 10q-49 0 -100 -26.5t-99 -96t-90 -188.5t-75 -303q-12 -76 -20.5 -139.5t-10.5 -116.5zM393 319q14 -125 62 -171t114 -46q49 0 100.5 27t99.5 96.5t90 188t75 303.5q14 76 20.5 139.5t10.5 116.5z" />
<glyph unicode="&#xd9;" horiz-adv-x="1064" d="M188.5 248q-6.5 98 20.5 244l166 942h184l-166 -942q-20 -115 -19 -191t22.5 -120t60.5 -61.5t92 -17.5t98 17.5t82 61.5t65.5 120t49.5 191l166 942h184l-166 -942q-27 -145 -67.5 -243.5t-101 -158t-142.5 -85t-189 -25.5q-109 0 -181.5 25.5t-112 85t-46 157.5z M651 1782h195l24 -266h-122z" />
<glyph unicode="&#xda;" horiz-adv-x="1064" d="M188.5 248q-6.5 98 20.5 244l166 942h184l-166 -942q-20 -115 -19 -191t22.5 -120t60.5 -61.5t92 -17.5t98 17.5t82 61.5t65.5 120t49.5 191l166 942h184l-166 -942q-27 -145 -67.5 -243.5t-101 -158t-142.5 -85t-189 -25.5q-109 0 -181.5 25.5t-112 85t-46 157.5z M727 1516l119 266h194l-190 -266h-123z" />
<glyph unicode="&#xdb;" horiz-adv-x="1064" d="M188.5 248q-6.5 98 20.5 244l166 942h184l-166 -942q-20 -115 -19 -191t22.5 -120t60.5 -61.5t92 -17.5t98 17.5t82 61.5t65.5 120t49.5 191l166 942h184l-166 -942q-27 -145 -67.5 -243.5t-101 -158t-142.5 -85t-189 -25.5q-109 0 -181.5 25.5t-112 85t-46 157.5z M549 1516l201 266h194l107 -266h-123l-103 151l-153 -151h-123z" />
<glyph unicode="&#xdc;" horiz-adv-x="1064" d="M188.5 248q-6.5 98 20.5 244l166 942h184l-166 -942q-20 -115 -19 -191t22.5 -120t60.5 -61.5t92 -17.5t98 17.5t82 61.5t65.5 120t49.5 191l166 942h184l-166 -942q-27 -145 -67.5 -243.5t-101 -158t-142.5 -85t-189 -25.5q-109 0 -181.5 25.5t-112 85t-46 157.5z M547 1536l39 225h184l-39 -225h-184zM874 1536l39 225h185l-39 -225h-185z" />
<glyph unicode="&#xdd;" horiz-adv-x="921" d="M272 1434h185l127 -727l385 727h184l-522 -983l-78 -451h-184l77 451zM655 1516l119 266h195l-191 -266h-123z" />
<glyph unicode="&#xde;" horiz-adv-x="1024" d="M139 -20l260 1474h185l-29 -164q313 -16 436 -159.5t76 -413.5t-221 -413.5t-494 -160.5l-28 -163h-185zM375 276q217 8 344 116t164 325q39 217 -49.5 324.5t-303.5 115.5z" />
<glyph unicode="&#xdf;" horiz-adv-x="1085" d="M133 0l178 1014q20 119 58.5 202.5t95.5 136t135 77t178 24.5q186 0 262 -87t47 -241q-12 -74 -54 -122t-89 -86.5t-88 -77.5t-49 -92q-8 -41 12.5 -72t52 -59.5t70.5 -58.5t69.5 -68.5t46 -90t3.5 -123.5q-16 -88 -48 -145t-82 -91t-118 -47t-151 -13q-47 0 -100.5 12 t-98.5 28l14 82h164q92 0 155.5 37t80.5 137q8 51 -9.5 89t-49.5 70t-70.5 61.5t-69.5 64.5t-48.5 80t-6.5 107q12 70 54 115.5t89 84.5t87 80t50 98q16 86 -28 140.5t-121 54.5q-92 0 -161 -69.5t-97 -237.5l-179 -1014h-184z" />
<glyph unicode="&#xe0;" horiz-adv-x="950" d="M159 256q-5 102 23 256q27 154 68 256t101.5 163.5t139 87t183.5 25.5q92 0 169 -15t148 -46l-172 -983h-153v61h-11q-47 -39 -107.5 -60t-121.5 -21q-80 0 -139.5 25.5t-91 87t-36.5 163.5zM345 309q1 -80 20.5 -126t56.5 -63.5t86 -17.5q39 0 82 12.5t69 28.5l138 779 h-144q-49 0 -92 -18.5t-79 -64.5t-65.5 -125t-49.5 -202q-23 -123 -22 -203zM573 1413h195l25 -266h-123z" />
<glyph unicode="&#xe1;" horiz-adv-x="952" d="M159 256q-5 102 23 256q27 154 68 256t101.5 163.5t139 87t183.5 25.5q92 0 169 -15t148 -46l-172 -983h-153v61h-11q-47 -39 -107.5 -60t-121.5 -21q-80 0 -139.5 25.5t-91 87t-36.5 163.5zM345 309q1 -80 20.5 -126t56.5 -63.5t86 -17.5q39 0 82 12.5t69 28.5l138 779 h-144q-49 0 -92 -18.5t-79 -64.5t-65.5 -125t-49.5 -202q-23 -123 -22 -203zM631 1147l119 266h194l-190 -266h-123z" />
<glyph unicode="&#xe2;" horiz-adv-x="950" d="M157 256q-5 102 23 256q27 154 68 256t101.5 163.5t139 87t183.5 25.5q92 0 169 -15t148 -46l-172 -983h-153v61h-11q-47 -39 -107.5 -60t-121.5 -21q-80 0 -139.5 25.5t-91 87t-36.5 163.5zM343 309q1 -80 20.5 -126t56.5 -63.5t86 -17.5q39 0 82 12.5t69 28.5l138 779 h-144q-49 0 -92 -18.5t-79 -64.5t-65.5 -125t-49.5 -202q-23 -123 -22 -203zM451 1126l200 267h195l106 -267h-123l-100 152l-156 -152h-122z" />
<glyph unicode="&#xe3;" horiz-adv-x="950" d="M157 256q-5 102 23 256q27 154 68 256t101.5 163.5t139 87t183.5 25.5q92 0 169 -15t148 -46l-172 -983h-153v61h-11q-47 -39 -107.5 -60t-121.5 -21q-80 0 -139.5 25.5t-91 87t-36.5 163.5zM343 309q1 -80 20.5 -126t56.5 -63.5t86 -17.5q39 0 82 12.5t69 28.5l138 779 h-144q-49 0 -92 -18.5t-79 -64.5t-65.5 -125t-49.5 -202q-23 -123 -22 -203zM496 1372h102q-10 -47 1 -69.5t34 -22.5q18 0 38.5 19.5t44 42t53.5 42t69 19.5q78 0 107.5 -49t8.5 -166h-102q14 92 -35 92q-18 0 -38.5 -19.5t-45 -42t-54.5 -42t-69 -19.5q-78 0 -107.5 49 t-6.5 166z" />
<glyph unicode="&#xe4;" horiz-adv-x="950" d="M157 256q-5 102 23 256q27 154 68 256t101.5 163.5t139 87t183.5 25.5q92 0 169 -15t148 -46l-172 -983h-153v61h-11q-47 -39 -107.5 -60t-121.5 -21q-80 0 -139.5 25.5t-91 87t-36.5 163.5zM343 309q1 -80 20.5 -126t56.5 -63.5t86 -17.5q39 0 82 12.5t69 28.5l138 779 h-144q-49 0 -92 -18.5t-79 -64.5t-65.5 -125t-49.5 -202q-23 -123 -22 -203zM449 1167l38 226h185l-39 -226h-184zM776 1167l39 226h184l-38 -226h-185z" />
<glyph unicode="&#xe5;" horiz-adv-x="952" d="M159 256q-5 102 23 256q27 154 68 256t101.5 163.5t139 87t183.5 25.5q92 0 169 -15t148 -46l-172 -983h-153v61h-11q-47 -39 -107.5 -60t-121.5 -21q-80 0 -139.5 25.5t-91 87t-36.5 163.5zM345 309q1 -80 20.5 -126t56.5 -63.5t86 -17.5q39 0 82 12.5t69 28.5l138 779 h-144q-49 0 -92 -18.5t-79 -64.5t-65.5 -125t-49.5 -202q-23 -123 -22 -203zM551 1270q14 78 69.5 121t133.5 43t118.5 -43t26.5 -121t-69.5 -121t-133.5 -43t-118.5 43t-26.5 121zM653 1270q-8 -39 10.5 -55.5t49.5 -16.5t53.5 16.5t30.5 55.5q6 39 -11.5 55t-48.5 16 t-54.5 -16t-29.5 -55z" />
<glyph unicode="&#xe6;" horiz-adv-x="1402" d="M137.5 135.5q-12.5 59.5 3.5 151.5q14 88 47 145t79 91t105.5 47.5t129.5 13.5q47 0 101 -6.5t99 -14.5l23 133q12 70 5 114t-31.5 68.5t-64.5 34t-93 9.5h-205l14 82q49 16 120 28t132 12q92 0 164 -36.5t98 -106.5q51 70 126 106.5t175 36.5q186 0 259 -79.5t46 -227.5 q-25 -139 -121 -212.5t-288 -73.5h-195q-18 -100 -14 -167t31.5 -107t79 -57.5t129.5 -17.5h204l-14 -82q-47 -16 -118.5 -28t-133.5 -12q-123 0 -192.5 32.5t-110.5 110.5q-59 -70 -141 -106.5t-191 -36.5q-70 0 -124 13t-87.5 48t-46 94.5zM324 198q8 -36 27.5 -57.5 t47 -30t58.5 -8.5q39 0 71.5 9.5t55.5 21.5q27 12 49 31l51 297h-143q-78 0 -137.5 -37t-77.5 -137q-10 -53 -2 -89zM889 573h194q86 0 137.5 43t65.5 121q16 92 -22.5 143.5t-116.5 51.5q-43 0 -81 -17.5t-71.5 -58.5t-60.5 -109.5t-45 -173.5z" />
<glyph unicode="&#xe7;" horiz-adv-x="768" d="M160 291q0 92 22 221q27 154 68 256t98.5 163.5t133 87t171.5 25.5q61 0 129 -12t111 -28l-14 -82h-205q-57 0 -104.5 -18.5t-85.5 -64.5t-67.5 -125t-49.5 -202q-23 -123 -22 -203t24.5 -126t68.5 -63.5t111 -17.5h205l-15 -82q-47 -16 -118.5 -28t-133.5 -12h-20 l-6 -31h31q86 0 122.5 -41t26.5 -103q-10 -61 -65.5 -102t-155.5 -41q-35 0 -62.5 4t-46.5 10q-23 8 -39 17l11 61h133q47 0 67.5 14.5t24.5 36.5q6 51 -53 52h-113l25 135q-70 12 -116 47t-68.5 97.5t-22.5 154.5z" />
<glyph unicode="&#xe8;" horiz-adv-x="890" d="M160 256q-6 102 22 256q27 154 68 256t98.5 163.5t133 87t171.5 25.5q178 0 254 -87t47 -240q-25 -139 -120 -213t-287 -74h-195q-35 -184 19.5 -256t208.5 -72h204l-14 -82q-47 -16 -118.5 -28t-133.5 -12q-115 0 -192.5 25.5t-118.5 87t-47 163.5zM373 553h194 q86 0 137.5 43t65.5 121q18 100 -23.5 157.5t-111.5 57.5q-43 0 -81 -17.5t-71.5 -60.5t-61.5 -116.5t-48 -184.5zM504 1413h194l25 -266h-123z" />
<glyph unicode="&#xe9;" horiz-adv-x="890" d="M160 256q-6 102 22 256q27 154 68 256t98.5 163.5t133 87t171.5 25.5q178 0 254 -87t47 -240q-25 -139 -120 -213t-287 -74h-195q-35 -184 19.5 -256t208.5 -72h204l-14 -82q-47 -16 -118.5 -28t-133.5 -12q-115 0 -192.5 25.5t-118.5 87t-47 163.5zM373 553h194 q86 0 137.5 43t65.5 121q18 100 -23.5 157.5t-111.5 57.5q-43 0 -81 -17.5t-71.5 -60.5t-61.5 -116.5t-48 -184.5zM580 1147l118 266h195l-191 -266h-122z" />
<glyph unicode="&#xea;" horiz-adv-x="890" d="M160 256q-6 102 22 256q27 154 68 256t98.5 163.5t133 87t171.5 25.5q178 0 254 -87t47 -240q-25 -139 -120 -213t-287 -74h-195q-35 -184 19.5 -256t208.5 -72h204l-14 -82q-47 -16 -118.5 -28t-133.5 -12q-115 0 -192.5 25.5t-118.5 87t-47 163.5zM373 553h194 q86 0 137.5 43t65.5 121q18 100 -23.5 157.5t-111.5 57.5q-43 0 -81 -17.5t-71.5 -60.5t-61.5 -116.5t-48 -184.5zM401 1126l201 267h195l106 -267h-123l-100 152l-156 -152h-123z" />
<glyph unicode="&#xeb;" horiz-adv-x="890" d="M160 256q-6 102 22 256q27 154 68 256t98.5 163.5t133 87t171.5 25.5q178 0 254 -87t47 -240q-25 -139 -120 -213t-287 -74h-195q-35 -184 19.5 -256t208.5 -72h204l-14 -82q-47 -16 -118.5 -28t-133.5 -12q-115 0 -192.5 25.5t-118.5 87t-47 163.5zM373 553h194 q86 0 137.5 43t65.5 121q18 100 -23.5 157.5t-111.5 57.5q-43 0 -81 -17.5t-71.5 -60.5t-61.5 -116.5t-48 -184.5zM399 1167l39 226h185l-39 -226h-185zM727 1167l39 226h184l-39 -226h-184z" />
<glyph unicode="&#xec;" d="M143 0l181 1024h184l-180 -1024h-185zM279 1413h194l25 -266h-123z" />
<glyph unicode="&#xed;" d="M143 0l181 1024h184l-180 -1024h-185zM375 1147l119 266h194l-190 -266h-123z" />
<glyph unicode="&#xee;" horiz-adv-x="440" d="M129 0l180 1024h185l-181 -1024h-184zM166 1126l201 267h194l107 -267h-123l-101 152l-155 -152h-123z" />
<glyph unicode="&#xef;" d="M143 0l181 1024h184l-180 -1024h-185zM184 1167l39 226h185l-39 -226h-185zM512 1167l39 226h184l-39 -226h-184z" />
<glyph unicode="&#xf0;" horiz-adv-x="931" d="M143.5 225q-8.5 88 14.5 215t61.5 215t93 142.5t126 79t159.5 24.5q70 0 117 -14.5t90 -36.5q27 152 -25 266l-125 -123l-80 72l144 141q-104 111 -324 166l25 82q262 -25 407 -141l134 131l79 -72l-141 -137q127 -176 70 -498l-54 -297q-23 -127 -60.5 -215t-95 -142 t-132 -78.5t-170.5 -24.5t-163 24.5t-104.5 78.5t-46 142zM327 273.5q3 -66.5 21.5 -106.5t51 -57.5t75.5 -17.5t81 17.5t72 57.5t59.5 106.5t43.5 166.5l53 297q-20 16 -59 28.5t-86 12.5q-57 0 -104.5 -16.5t-84 -56t-64.5 -104t-44 -161.5q-18 -100 -15 -166.5z" />
<glyph unicode="&#xf1;" horiz-adv-x="972" d="M133 0l180 1024h154l-2 -61h10q47 39 107.5 60t122.5 21q74 0 130 -13t91 -48t47 -94.5t-4 -151.5l-129 -737h-185l129 737q8 53 0 89t-29.5 57.5t-55 30t-76.5 8.5q-39 0 -82 -12.5t-70 -28.5l-154 -881h-184zM487 1372h103q-10 -47 1 -69.5t34 -22.5q18 0 38.5 19.5 t44 42t53.5 42t68 19.5q78 0 108 -49t9 -166h-102q14 92 -35 92q-18 0 -38.5 -19.5t-45.5 -42t-54.5 -42t-68.5 -19.5q-78 0 -107.5 49t-7.5 166z" />
<glyph unicode="&#xf2;" horiz-adv-x="962" d="M172 260q-6 102 21 252t68.5 252t100 164.5t134 89t168.5 26.5q92 0 158.5 -26.5t103.5 -89t44 -164.5t-20 -252t-69.5 -252t-101 -164.5t-134.5 -89t-168 -26.5t-158.5 26.5t-103.5 89t-43 164.5zM355 308q1 -81 19.5 -129t50.5 -67.5t71 -19.5t77.5 19.5t73.5 67.5 t65.5 129t53.5 204q20 123 19 204t-19 129t-50 67.5t-71 19.5t-78 -19.5t-73.5 -67.5t-65.5 -129t-51 -204q-23 -123 -22 -204zM535 1413h194l25 -266h-123z" />
<glyph unicode="&#xf3;" horiz-adv-x="962" d="M172 260q-6 102 21 252t68.5 252t100 164.5t134 89t168.5 26.5q92 0 158.5 -26.5t103.5 -89t44 -164.5t-20 -252t-69.5 -252t-101 -164.5t-134.5 -89t-168 -26.5t-158.5 26.5t-103.5 89t-43 164.5zM355 308q1 -81 19.5 -129t50.5 -67.5t71 -19.5t77.5 19.5t73.5 67.5 t65.5 129t53.5 204q20 123 19 204t-19 129t-50 67.5t-71 19.5t-78 -19.5t-73.5 -67.5t-65.5 -129t-51 -204q-23 -123 -22 -204zM610 1147l119 266h195l-191 -266h-123z" />
<glyph unicode="&#xf4;" horiz-adv-x="942" d="M161.5 260q-6.5 102 20.5 252t69 252t100.5 164.5t134 89t167.5 26.5t159 -26.5t103.5 -89t44 -164.5t-19.5 -252t-70 -252t-101 -164.5t-134 -89t-168 -26.5t-158.5 26.5t-103.5 89t-43.5 164.5zM345 308q1 -81 19.5 -129t50 -67.5t70.5 -19.5t78 19.5t74 67.5t65.5 129 t53.5 204q20 123 19 204t-19.5 129t-50 67.5t-70.5 19.5t-78 -19.5t-73.5 -67.5t-65.5 -129t-51 -204q-23 -123 -22 -204zM418 1126l200 267h195l107 -267h-123l-101 152l-155 -152h-123z" />
<glyph unicode="&#xf5;" horiz-adv-x="962" d="M172 260q-6 102 21 252t68.5 252t100 164.5t134 89t168.5 26.5q92 0 158.5 -26.5t103.5 -89t44 -164.5t-20 -252t-69.5 -252t-101 -164.5t-134.5 -89t-168 -26.5t-158.5 26.5t-103.5 89t-43 164.5zM355 308q1 -81 19.5 -129t50.5 -67.5t71 -19.5t77.5 19.5t73.5 67.5 t65.5 129t53.5 204q20 123 19 204t-19 129t-50 67.5t-71 19.5t-78 -19.5t-73.5 -67.5t-65.5 -129t-51 -204q-23 -123 -22 -204zM477 1372h103q-10 -47 1 -69.5t33 -22.5q18 0 39 19.5t44.5 42t53 42t68.5 19.5q78 0 107.5 -49t9.5 -166h-102q14 92 -35 92q-18 0 -39 -19.5 t-45.5 -42t-54 -42t-68.5 -19.5q-78 0 -107.5 49t-7.5 166z" />
<glyph unicode="&#xf6;" horiz-adv-x="962" d="M172 260q-6 102 21 252t68.5 252t100 164.5t134 89t168.5 26.5q92 0 158.5 -26.5t103.5 -89t44 -164.5t-20 -252t-69.5 -252t-101 -164.5t-134.5 -89t-168 -26.5t-158.5 26.5t-103.5 89t-43 164.5zM355 308q1 -81 19.5 -129t50.5 -67.5t71 -19.5t77.5 19.5t73.5 67.5 t65.5 129t53.5 204q20 123 19 204t-19 129t-50 67.5t-71 19.5t-78 -19.5t-73.5 -67.5t-65.5 -129t-51 -204q-23 -123 -22 -204zM430 1167l39 226h184l-39 -226h-184zM758 1167l39 226h184l-39 -226h-184z" />
<glyph unicode="&#xf7;" horiz-adv-x="880" d="M154 532l28 164h758l-29 -164h-757zM391 195l33 184h164l-33 -184h-164zM508 850l33 184h164l-33 -184h-164z" />
<glyph unicode="&#xf8;" horiz-adv-x="983" d="M82 123l104 96q-8 57 -4 129t21 164q27 150 68.5 252t100 164.5t134.5 89t168 26.5q98 0 166.5 -30.5t103.5 -102.5l78 72l57 -82l-104 -96q6 -57 4 -129t-18 -164q-27 -150 -70 -252t-101.5 -164.5t-134 -89t-168.5 -26.5q-98 0 -166.5 30.5t-103.5 102.5l-78 -72z M369 252q10 -92 48 -126t89 -34q39 0 78 19.5t73.5 67.5t65 129t53.5 204q6 35 9 65.5t6 59.5zM369 385l422 387q-10 90 -47 125t-89 35q-39 0 -77.5 -19.5t-73.5 -67.5t-66 -129t-51 -204q-12 -74 -18 -127z" />
<glyph unicode="&#xf9;" horiz-adv-x="972" d="M178 135.5q-12 59.5 4 151.5l131 737h185l-131 -737q-10 -53 -1 -89t30.5 -57.5t55 -30t76.5 -8.5q39 0 82 12.5t70 28.5l156 881h184l-180 -1024h-154v61h-10q-47 -39 -107.5 -60t-122.5 -21q-74 0 -130 13t-91 48t-47 94.5zM545 1413h194l25 -266h-123z" />
<glyph unicode="&#xfa;" horiz-adv-x="972" d="M178 135.5q-12 59.5 4 151.5l131 737h185l-131 -737q-10 -53 -1 -89t30.5 -57.5t55 -30t76.5 -8.5q39 0 82 12.5t70 28.5l156 881h184l-180 -1024h-154v61h-10q-47 -39 -107.5 -60t-122.5 -21q-74 0 -130 13t-91 48t-47 94.5zM621 1147l118 266h195l-191 -266h-122z" />
<glyph unicode="&#xfb;" horiz-adv-x="972" d="M178 135.5q-12 59.5 4 151.5l131 737h185l-131 -737q-10 -53 -1 -89t30.5 -57.5t55 -30t76.5 -8.5q39 0 82 12.5t70 28.5l156 881h184l-180 -1024h-154v61h-10q-47 -39 -107.5 -60t-122.5 -21q-74 0 -130 13t-91 48t-47 94.5zM436 1126l201 267h194l107 -267h-123 l-100 152l-156 -152h-123z" />
<glyph unicode="&#xfc;" horiz-adv-x="972" d="M178 135.5q-12 59.5 4 151.5l131 737h185l-131 -737q-10 -53 -1 -89t30.5 -57.5t55 -30t76.5 -8.5q39 0 82 12.5t70 28.5l156 881h184l-180 -1024h-154v61h-10q-47 -39 -107.5 -60t-122.5 -21q-74 0 -130 13t-91 48t-47 94.5zM440 1167l39 226h185l-39 -226h-185z M768 1167l39 226h184l-39 -226h-184z" />
<glyph unicode="&#xfd;" horiz-adv-x="972" d="M115 -389l14 82h205q70 0 123 16.5t92 56t66.5 104t43.5 161.5q-49 -23 -100.5 -37t-112.5 -14q-74 0 -130 13t-91 48t-47 94.5t4 151.5l131 737h185l-131 -737q-10 -53 -1 -89t30.5 -57.5t55 -30t76.5 -8.5q39 0 82 12.5t70 28.5l156 881h184l-166 -942 q-27 -145 -68 -243.5t-101 -158t-143 -85t-190 -25.5q-61 0 -127.5 12t-109.5 29zM621 1147l118 266h195l-191 -266h-122z" />
<glyph unicode="&#xfe;" horiz-adv-x="962" d="M70 -410l325 1844h185l-78 -441q51 23 101 37t112 14q80 0 139 -25.5t91 -87t37 -163.5t-21 -256q-29 -154 -69 -256t-94.5 -163.5t-122 -87t-147.5 -25.5q-61 0 -107 14t-89 37l-78 -441h-184zM352 143q20 -16 58.5 -28.5t76.5 -12.5q49 0 92.5 17.5t80 63.5t65 126 t51.5 203q20 123 20.5 202t-20 125t-57.5 64.5t-86 18.5q-39 0 -82 -12.5t-70 -28.5z" />
<glyph unicode="&#xff;" horiz-adv-x="972" d="M115 -389l14 82h205q70 0 123 16.5t92 56t66.5 104t43.5 161.5q-49 -23 -100.5 -37t-112.5 -14q-74 0 -130 13t-91 48t-47 94.5t4 151.5l131 737h185l-131 -737q-10 -53 -1 -89t30.5 -57.5t55 -30t76.5 -8.5q39 0 82 12.5t70 28.5l156 881h184l-166 -942 q-27 -145 -68 -243.5t-101 -158t-143 -85t-190 -25.5q-61 0 -127.5 12t-109.5 29zM440 1167l39 226h185l-39 -226h-185zM768 1167l39 226h184l-39 -226h-184z" />
<glyph unicode="&#x152;" horiz-adv-x="1515" d="M186.5 388q-14.5 136 20.5 329q33 193 95.5 329t152.5 222t208.5 126t264.5 40h758l-25 -144h-512l-84 -471h451l-25 -143h-451l-94 -533h512l-24 -143h-758q-145 0 -249.5 40t-165 126t-75 222zM369.5 445.5q7.5 -109.5 47.5 -177t111.5 -96.5t171.5 -29h62l203 1147 h-62q-100 0 -182 -28.5t-145.5 -96t-109.5 -177t-75 -271.5t-21.5 -271.5z" />
<glyph unicode="&#x153;" horiz-adv-x="1464" d="M162 260q-6 102 20 252q27 150 69 252t100.5 164.5t134 89t167.5 26.5q86 0 154.5 -42.5t93.5 -120.5q53 78 139 120.5t187 42.5q186 0 259 -79.5t46 -227.5q-25 -139 -121 -212.5t-289 -73.5h-194q-18 -100 -14 -167t31.5 -107t78.5 -57.5t129 -17.5h205l-15 -82 q-47 -16 -118.5 -28t-132.5 -12q-139 0 -210 38.5t-110 124.5q-53 -78 -136 -120.5t-169 -42.5q-92 0 -158.5 26.5t-103.5 89t-43 164.5zM345 308q1 -81 19.5 -129t50 -67.5t70.5 -19.5t78 19.5t74 67.5t65.5 129t53.5 204q20 123 19 204t-19.5 129t-50 67.5t-70.5 19.5 t-78 -19.5t-73.5 -67.5t-65.5 -129t-51 -204q-23 -123 -22 -204zM950 573h195q86 0 137 43t66 121q16 92 -23 143.5t-117 51.5q-43 0 -80.5 -17.5t-71.5 -58.5t-60.5 -109.5t-45.5 -173.5z" />
<glyph unicode="&#x178;" horiz-adv-x="921" d="M272 1434h185l127 -727l385 727h184l-522 -983l-78 -451h-184l77 451zM481 1577l41 225h185l-41 -225h-185zM809 1577l41 225h184l-41 -225h-184z" />
<glyph unicode="&#x2c6;" horiz-adv-x="583" d="M238 1126l200 267h195l106 -267h-123l-100 152l-156 -152h-122z" />
<glyph unicode="&#x2dc;" horiz-adv-x="573" d="M283 1372h102q-10 -47 1 -69.5t34 -22.5q18 0 36.5 19.5t41 42t50 42t66.5 19.5q86 0 117 -49t10 -166h-102q14 92 -35 92q-18 0 -37.5 -19.5l-42 -42t-50.5 -42t-66 -19.5q-86 0 -117 49t-8 166z" />
<glyph unicode="&#x2000;" horiz-adv-x="911" />
<glyph unicode="&#x2001;" horiz-adv-x="1823" />
<glyph unicode="&#x2002;" horiz-adv-x="911" />
<glyph unicode="&#x2003;" horiz-adv-x="1823" />
<glyph unicode="&#x2004;" horiz-adv-x="607" />
<glyph unicode="&#x2005;" horiz-adv-x="455" />
<glyph unicode="&#x2006;" horiz-adv-x="303" />
<glyph unicode="&#x2007;" horiz-adv-x="303" />
<glyph unicode="&#x2008;" horiz-adv-x="227" />
<glyph unicode="&#x2009;" horiz-adv-x="364" />
<glyph unicode="&#x200a;" horiz-adv-x="101" />
<glyph unicode="&#x2010;" horiz-adv-x="737" d="M156 543l26 143h615l-27 -143h-614z" />
<glyph unicode="&#x2011;" horiz-adv-x="737" d="M156 543l26 143h615l-27 -143h-614z" />
<glyph unicode="&#x2012;" horiz-adv-x="737" d="M156 543l26 143h615l-27 -143h-614z" />
<glyph unicode="&#x2013;" horiz-adv-x="942" d="M150 502l24 143h819l-24 -143h-819z" />
<glyph unicode="&#x2014;" horiz-adv-x="1310" d="M150 502l24 143h1188l-25 -143h-1187z" />
<glyph unicode="&#x2018;" horiz-adv-x="348" d="M254 983l141 451h133l-79 -451h-195z" />
<glyph unicode="&#x2019;" horiz-adv-x="348" d="M254 983l80 451h194l-141 -451h-133z" />
<glyph unicode="&#x201a;" horiz-adv-x="348" d="M39 -236l80 451h194l-141 -451h-133z" />
<glyph unicode="&#x201c;" horiz-adv-x="655" d="M244 983l141 451h133l-80 -451h-194zM551 983l141 451h133l-80 -451h-194z" />
<glyph unicode="&#x201d;" horiz-adv-x="655" d="M254 983l80 451h194l-141 -451h-133zM561 983l80 451h195l-142 -451h-133z" />
<glyph unicode="&#x201e;" horiz-adv-x="655" d="M39 -236l80 451h194l-141 -451h-133zM346 -236l80 451h195l-142 -451h-133z" />
<glyph unicode="&#x2022;" horiz-adv-x="512" d="M188 553l58 326h327l-57 -326h-328z" />
<glyph unicode="&#x2026;" horiz-adv-x="1044" d="M80 -10l39 225h184l-39 -225h-184zM428 -10l39 225h184l-39 -225h-184zM776 -10l39 225h184l-38 -225h-185z" />
<glyph unicode="&#x202f;" horiz-adv-x="364" />
<glyph unicode="&#x2039;" horiz-adv-x="604" d="M131 512l455 492l119 -82l-369 -406l-2 -8l225 -406l-147 -82z" />
<glyph unicode="&#x203a;" horiz-adv-x="604" d="M78 102l368 406l3 8l-226 406l148 82l282 -492l-456 -492z" />
<glyph unicode="&#x205f;" horiz-adv-x="455" />
<glyph unicode="&#x20ac;" horiz-adv-x="952" d="M111 512l43 133h122l25 143h-143l45 134h133q43 154 96 256t117.5 163.5t140.5 87t160 25.5q92 0 174 -12t125 -29l-16 -92h-267q-49 0 -97 -17.5t-93 -62.5t-84 -123t-72 -196h420l-45 -134h-410l-24 -143h379l-43 -133h-348q-10 -119 2 -196.5t42.5 -123t76.5 -62.5 t104 -17h266l-16 -93q-47 -16 -134.5 -28t-179.5 -12t-162.5 25.5t-114.5 87t-62.5 163.5t-6.5 256h-153z" />
<glyph unicode="&#x2122;" horiz-adv-x="1361" d="M254 1331l18 103h502l-18 -103h-185l-90 -512h-133l90 512h-184zM707 819l149 615h158l102 -379l238 379h157l-67 -615h-131l45 420l-205 -328h-123l-90 328l-102 -420h-131z" />
<glyph unicode="&#xe000;" horiz-adv-x="1024" d="M0 0v1024h1024v-1024h-1024z" />
</font>
</defs>
</svg>
